Skip to main content

Camper Van Beethoven Live at House Of Blues on 2011-12-31




01. Eye Of Fatima
02. Tania
03. Too High For The Love-in
04. Waka
05. Seven Languages
06. Mao Reminisces About His Days In Southern China
07. Skinhead Stomp
08. When I Win The Lottery
09. Summer Days
10. L'Aguardiente
11. You Got To Roll
12. All Her Favorite Fruit
13. Take The Skinheads Bowling
14. Pictures Of Matchstick Men


Collection CamperVanBeethoven
Band/Artist Camper Van Beethoven
Venue House Of Blues
Location Chicago, IL USA

Source AKG C568EB Hybrid Shotguns @ 48 volts > Monster Studio Grade XLR > Zoom H4: 48khz / 24 bit
Lineage Mixed via Audacity 1.3 BETA > FLAC: 48/24: 8x
Taped by Barry Shoop
Transferred by Barry Shoop

Notes

with Cracker & Big Head Todd & The Monsters

recorded by Barry Shoop

BHTM set is here: http://archive.org/details/BHTM2011-12-31

Cracker set is here: http://archive.org/details/Cracker2011-12-31

SHNTOOL LEN:
length expanded size cdr WAVE problems fmt ratio filename
5:23.000 93024044 B cxx -- ---xx flac 0.6808 CVB2011-12-31t01.flac
4:02.000 69696044 B cxx -- ---xx flac 0.6537 CVB2011-12-31t02.flac
5:39.000 97632044 B cxx -- ---xx flac 0.6597 CVB2011-12-31t03.flac
2:48.000 48384044 B cxx -- ---xx flac 0.6893 CVB2011-12-31t04.flac
4:19.000 74592044 B cxx -- ---xx flac 0.6924 CVB2011-12-31t05.flac
1:58.290 34067600 B cxx -- ---xx flac 0.6654 CVB2011-12-31t06.flac
1:15.710 21804488 B cxx -- ---xx flac 0.6647 CVB2011-12-31t07.flac
3:41.000 63648044 B cxx -- ---xx flac 0.6541 CVB2011-12-31t08.flac
5:52.000 101376044 B cxx -- ---xx flac 0.6527 CVB2011-12-31t09.flac
5:57.000 102816044 B cxx -- ---xx flac 0.5961 CVB2011-12-31t10.flac
4:11.000 72288044 B cxx -- ---xx flac 0.6064 CVB2011-12-31t11.flac
5:14.000 90432044 B cxx -- ---xx flac 0.6420 CVB2011-12-31t12.flac
2:31.000 43488044 B cxx -- ---xx flac 0.6935 CVB2011-12-31t13.flac
4:59.000 86112044 B cxx -- ---xx flac 0.6783 CVB2011-12-31t14.flac
57:50.000 999360616 B 0.6554 (14 files)

Reviews

There are no reviews yet. Be the first one to write a review.
PEOPLE ALSO FOUND
Camper Van Beethoven
by Camper Van Beethoven
411
0
0
Camper Van Beethoven
by Camper Van Beethoven
9,949
0
1
( 1 reviews )
Source: Sony ECM-717 > Sharp MD-MT190MD
Camper Van Beethoven
by Camper Van Beethoven
2,679
0
1
( 1 reviews )
Source: Sony ECM-717 > Sharp Minidisc MD-MT190
Camper Van Beethoven
by Camper Van Beethoven
154
0
0
Source: soundboard > Sony D5 > TDK MA90 cassette master tape
Camper Van Beethoven
by Camper Van Beethoven
1,883
2
0
Source: B&K 4011-> Lunatec V2-> Benchmark AD2K+ FOB
Camper Van Beethoven
by Camper Van Beethoven
1,559
1
0
Source: DPA 4061 > Sony PCM-D50 > WAV @48/24
Camper Van Beethoven
by Camper Van Beethoven
1,727
1
1
( 1 reviews )
Source: Nakamichi CM-301 (ortf on stage with Leegeddy "active" mod) > pmod UA5> JB3
Camper Van Beethoven
by Camper Van Beethoven
13,255
1
2
( 2 reviews )
Source: Sony ECM-717 > Sharp Minidisc MD-MT19
Camper Van Beethoven
by Camper Van Beethoven
1,009
1
0
Source: SBD > ? > CD
Camper Van Beethoven
by Camper Van Beethoven
1,717
2
2
( 2 reviews )
Source: KM 140's > MV100 > SBM-1 (Oade mod) > D100